Loading...
Error

Запрещенный прием / Sucker Punch (Зак Снайдер / Zack Snyder) [2011 г. Фэнтези, боевик, триллер, приключения. BDRip 1080p]

Ответить на тему
 
Автор Сообщение

servak


5Mbps    5Mbps

Рейтинг:

Стаж: 7 лет 5 месяцев

Сообщений: 523

Россия


post 07-Апр-2011 20:07

Quote Сообщить о нарушении

Запрещенный прием / Sucker Punch


Год выпуска: 2011
Страна: США, Канада
Жанр: фэнтези, боевик, триллер
Продолжительность: 01:49:45
Перевод: Профессиональный (полное дублирование)

Режиссер: Зак Снайдер / Zack Snyder
Продюссер: Дебора Снайдер, Зак Снайдер, Уэсли Коллер
Сценарий: Зак Снайдер, Стив Шибуя

Бюджет: $82 000 000
Премьера в мире: 21 марта 2011



В ролях: Эмили Браунинг, Эбби Корниш, Джена Мэлоун, Ванесса Энн Хадженс, Джеми Чунг, Карла Гуджино, Джон Хэмм, Оскар Айзек, Скотт Гленн, Вики Ламберт

Описание: Действие развернется в 1950 году. Молодую девушку по настоянию ее злодейского отчима определяют в больницу для душевнобольных, где спустя пять дней главную героиню лоботомируют. Чтобы оградиться от боли, она выдумывает сказочный мир, где и начинает планировать свой побег — для этого ей нужно раздобыть пять предметов.

Качество: BDRip
Формат: MKV
Видео кодек: H264
Аудио: AC3

Видео: H.264, 1920 x 800, 8839 Kbps, 23.976 fps
Аудио: AC3, 6 channels, 448 Kbps, 48.0 KHz | Russian
Формат : Matroska
Размер файла : 7,12 Гбайт
Продолжительность : 1 ч. 49 м.
Общий поток : 9284 Кбит/сек
Дата кодирования : UTC 2011-07-13 00:33:02
Программа кодирования : mkvmerge v4.5.0 ('Speed of Light') сборка от Feb 15 2011 12:50:20
Библиотека кодирования : libebml v1.2.0 + libmatroska v1.1.0

Видео
Идентификатор : 1
Формат : AVC
Формат/Информация : Advanced Video Codec
Профиль формата : High@L4.1
Параметр CABAC формата : Да
Параметр ReFrames формата : 5 кадров
Идентификатор кодека : V_MPEG4/ISO/AVC
Продолжительность : 1 ч. 49 м.
Битрейт : 8839 Кбит/сек
Ширина : 1920 пикс.
Высота : 800 пикс.
Соотношение сторон : 2,40:1
Частота кадров : 23,976 кадр/сек
Цветовое пространство : YUV
Подвыборка цветности : 4:2:0
Битовая глубина : 8 бит
Тип развёртки : Прогрессивная
Бит/(Пиксели*Кадры) : 0.240
Размер потока : 6,63 Гбайт (93%)
Библиотека кодирования : x264 core 115 r2008 4c552d8
Настройки программы : cabac=1 / ref=5 / deblock=1:0:0 / analyse=0x3:0x133 / me=umh / subme=8 / psy=1 / psy_rd=1.00:0.00 / mixed_ref=1 / me_range=16 / chroma_me=1 / trellis=1 / 8x8dct=1 / cqm=0 / deadzone=21,11 / fast_pskip=0 / chroma_qp_offset=-2 / threads=18 / sliced_threads=0 / nr=0 / decimate=1 / interlaced=0 / bluray_compat=0 / constrained_intra=0 / bframes=3 / b_pyramid=2 / b_adapt=2 / b_bias=0 / direct=3 / weightb=1 / open_gop=0 / weightp=2 / keyint=240 / keyint_min=24 / scenecut=40 / intra_refresh=0 / rc_lookahead=50 / rc=2pass / mbtree=1 / bitrate=8839 / ratetol=1.0 / qcomp=0.60 / qpmin=0 / qpmax=69 / qpstep=4 / cplxblur=20.0 / qblur=0.5 / ip_ratio=1.40 / aq=1:1.00

Аудио
Идентификатор : 2
Формат : AC-3
Формат/Информация : Audio Coding 3
Расширение режима : CM (complete main)
Идентификатор кодека : A_AC3
Продолжительность : 1 ч. 49 м.
Вид битрейта : Постоянный
Битрейт : 448 Кбит/сек
Каналы : 6 каналов
Расположение каналов : Front: L C R, Side: L R, LFE
Частота : 48,0 КГц
Битовая глубина : 16 бит
Метод сжатия : С потерями
Размер потока : 352 Мбайт (5%)

_________________
гарантировано на раздачах с 12-00 до 24-00
Вне форумаProfile PM
Показать сообщения:    
Ответить на тему

Текущее время: 11-Дек 05:39

Часовой пояс: GMT + 3



 Сообщить о нарушении в теме 

Вы не можете начинать темы
Вы не можете отвечать на сообщения
Вы не можете редактировать свои сообщения
Вы не можете удалять свои сообщения
Вы не можете голосовать в опросах
Вы не можете прикреплять файлы к сообщениям
Вы не можете скачивать файлы
Проверка сайта