Loading...
Error

Чужая (Антон Борматов) [2010 г.] (Драма, криминал) [DVDRip]

Ответить на тему
 
Автор Сообщение

Виктор 1964


14Mbps    14Mbps

Рейтинг:

Стаж: 5 лет 1 месяц

Сообщений: 20


post 11-Дек-2011 21:34

Quote Сообщить о нарушении



Чужая


Год выпуска: 2010
Мировая премьера: 1 июля 2010
Российская премьера: 17 июня 2010
Производство: Россия
Жанр: Драма, криминал
Продолжительность: 01:44:10
Перевод: Не требуется [Лицензия]

Режиссер: Антон Борматов

В ролях: Наталья Романычева, Кирилл Полухин, Анатолий Отраднов, Евгений Мундум, Александр Голубков, Евгений Ткачук, Александр Большаков, Сергей Жарков, Дмитрий Ратомский, Ольга Бынкова...

Описание: 1990-е. Бандитский Киев. Бригада из четырех бойцов получает задание доставить из Праги девушку по кличке «Чужая». Она — родная сестра арестованного Бабая, чьи показания могут навредить важным людям.



Источник/Качество: DVDRip
Формат: AVI
Видео кодек: XviD
Аудио кодек: AC3
Видео: 720x384 (1.88:1), 25 fps, XviD build 50 ~1604 kbps avg, 0.23 bit/pixel
Аудио: 48 kHz, AC3 Dolby Digital, 3/2 (L,C,R,l,r) + LFE ch, ~384 kbps
Общее
Полное имя : D:\Jolly Roger\Chuzhaya.2010.XviD.DVDRip.JRG.avi
Формат : AVI
Формат/Информация : Audio Video Interleave
Размер файла : 1,45 Гбайт
Продолжительность : 1 ч. 44 м.
Общий поток : 1998 Кбит/сек
Программа кодирования : VirtualDubMod 1.5.10.3 | www.virtualdub-fr.org || (build 2550/release)
Библиотека кодирования : VirtualDubMod build 2550/release

Видео
Идентификатор : 0
Формат : MPEG-4 Visual
Профиль формата : Advanced Simple@L5
Параметр BVOP формата : 2
Параметр QPel формата : Нет
Параметр GMC формата : Без точки перехода
Параметр матрицы формата : Default (MPEG)
Идентификатор кодека : XVID
Идентификатор кодека/Подсказка : XviD
Продолжительность : 1 ч. 44 м.
Битрейт : 1605 Кбит/сек
Ширина : 720 пикс.
Высота : 384 пикс.
Соотношение сторон : 1,875
Частота кадров : 25,000 кадр/сек
Цветовое пространство : YUV
Подвыборка цветности : 4:2:0
Битовая глубина : 8 бит
Тип развёртки : Прогрессивная
Метод сжатия : С потерями
Бит/(Пиксели*Кадры) : 0.232
Размер потока : 1,17 Гбайт (80%)
Библиотека кодирования : XviD 1.2.1 (UTC 2008-12-04)

Аудио
Идентификатор : 1
Формат : AC-3
Формат/Информация : Audio Coding 3
Расширение режима : CM (complete main)
Идентификатор кодека : 2000
Продолжительность : 1 ч. 44 м.
Вид битрейта : Постоянный
Битрейт : 384 Кбит/сек
Канал(ы) : 6 канала(ов)
Расположение каналов : Front: L C R, Side: L R, LFE
Частота : 48,0 КГц
Битовая глубина : 16 бит
Метод сжатия : С потерями
Размер потока : 286 Мбайт (19%)
Выравнивание : Разделение по промежуткам
Продолжительность промежутка : 40 мс. (1,00 видеокадр)
Время предзагрузки промежутка : 500 ms
Пы.Сы. Оформление релиза - от автора рипа.
Пы.Пы.Сы. Выложено с личного разрешения автора рипа.

_________________
Вне форумаProfile PM

sbrserjo




post 09-Июн-2012 02:56 (спустя 5 месяцев 28 дней)

Quote Сообщить о нарушении

Очень понравился,деваха не промах оказалась всех нагрела bo ay
 
Показать сообщения:    
Ответить на тему

Текущее время: 07-Дек 17:48

Часовой пояс: GMT + 3



 Сообщить о нарушении в теме 

Вы не можете начинать темы
Вы не можете отвечать на сообщения
Вы не можете редактировать свои сообщения
Вы не можете удалять свои сообщения
Вы не можете голосовать в опросах
Вы не можете прикреплять файлы к сообщениям
Вы не можете скачивать файлы
Проверка сайта