Loading...
Error

Чёрная смерть / Black Death (Кристофер Смит / Christopher Smith) [2010, Германия, Великобритания, Драма, боевик, исторический, BDRip 1080p] MVO Sub rus + original eng

Ответить на тему
 
Автор Сообщение

servak


5Mbps    5Mbps

Рейтинг:

Стаж: 7 лет 5 месяцев

Сообщений: 523

Россия


post 04-Ноя-2010 18:18

Quote Сообщить о нарушении

Черная смерть / Black Death
«В эпоху тьмы один человек столкнётся в последней битве со злом.»
Год выпуска: 2010
Страна: Германия, Великобритания
Студия: Egoli Tossell Film AG
Жанр: драма, детектив,
Продолжительность: 01:41:34
Перевод: Профессиональный (многоголосый, закадровый)[Лицензия]

Режиссер: Кристофер Смит / Christopher Smith
Продюссер: Мэттью Бэйкер, Фрэнк Леманн, Дженс Мейер,
Сценарий: Дарио Полони

Премьера в мире: 26 мая 2010

6.60 (3 897)


В ролях: Шон Бин, Эдди Редмэйн, Кэрис Ван Хаутен, Дэвид Уорнер, Кимберли Никсон, Джон Линч, Джонни Харрис, Тим МакИннерни, Энди Найман, Emun Elliot
Описание: Средневековая Англия попала под тень Черной смерти. В этом апокалиптическом мире, заполненном страхом и суеверием, собираются несколько монахов, объединенных одной целью  выследить того, кто способен возвращать к жизни умерших от чумы.


Качество: BDRip 1080p
Формат: MKV
Видео кодек: MPEG-4
Аудио кодек: AC3

Видео: MPEG-4 AVC, 8610 Кбит/с, 1920x800, 24.000 кадр/с
Аудио: Русский (AC3, 6 ch, 448 Кбит/с, 48 KHz)
Аудио 2: Английский (AC3, 6 ch, 640 Кбит/с, 48 KHz)
Cубтитры: Русские, английские
MediaInfo
General
Complete name : D:\Chernaja.smert.2010.x264.BDRip(1080p)-spam-HD.mkv
Format : Matroska
File size : 6.87 GiB
Duration : 1h 41mn
Overall bit rate : 9 694 Kbps
Movie name : --SCHUMAHER--
Encoded date : UTC 2010-11-04 22:49:48
Writing application : mkvmerge v3.4.0 ('Rapunzel') сборка от May 15 2010 09:38:20
Writing library : libebml v0.8.0 + libmatroska v0.9.0
Video
ID : 1
Format : AVC
Format/Info : Advanced Video Codec
Format profile : High@L4.1
Format settings, CABAC : Yes
Format settings, ReFrames : 5 frames
Muxing mode : Container profile=Unknown@4.1
Codec ID : V_MPEG4/ISO/AVC
Duration : 1h 41mn
Bit rate : 8 413 Kbps
Nominal bit rate : 8 610 Kbps
Width : 1 920 pixels
Height : 800 pixels
Display aspect ratio : 2.40:1
Frame rate : 24.000 fps
Resolution : 8 bits
Colorimetry : 4:2:0
Scan type : Progressive
Bits/(Pixel*Frame) : 0.228
Stream size : 5.96 GiB (87%)
Writing library : x264 core 105 r1732 2b04482
Encoding settings : cabac=1 / ref=5 / deblock=1:0:0 / analyse=0x3:0x133 / me=umh / subme=8 / psy=1 / psy_rd=1.00:0.00 / mixed_ref=1 / me_range=16 / chroma_me=1 / trellis=1 / 8x8dct=1 / cqm=0 / deadzone=21,11 / fast_pskip=0 / chroma_qp_offset=-2 / threads=18 / sliced_threads=0 / nr=0 / decimate=1 / interlaced=0 / constrained_intra=0 / bframes=3 / b_pyramid=2 / b_adapt=1 / b_bias=0 / direct=1 / weightb=1 / open_gop=0 / weightp=2 / keyint=250 / keyint_min=23 / scenecut=40 / intra_refresh=0 / rc_lookahead=40 / rc=2pass / mbtree=1 / bitrate=8610 / ratetol=1.0 / qcomp=0.60 / qpmin=10 / qpmax=51 / qpstep=4 / cplxblur=20.0 / qblur=0.5 / ip_ratio=1.40 / aq=1:1.00
Language : English
Audio #1
ID : 2
Format : AC-3
Format/Info : Audio Coding 3
Codec ID : A_AC3
Duration : 1h 41mn
Bit rate mode : Constant
Bit rate : 448 Kbps
Channel(s) : 6 channels
Channel positions : Front: L C R, Surround: L R, LFE
Sampling rate : 48.0 KHz
Stream size : 325 MiB (5%)
Language : Russian
Audio #2
ID : 3
Format : AC-3
Format/Info : Audio Coding 3
Codec ID : A_AC3
Duration : 1h 41mn
Bit rate mode : Constant
Bit rate : 640 Kbps
Channel(s) : 6 channels
Channel positions : Front: L C R, Surround: L R, LFE
Sampling rate : 48.0 KHz
Stream size : 465 MiB (7%)
Language : English
Text #1
ID : 4
Format : UTF-8
Codec ID : S_TEXT/UTF8
Codec ID/Info : UTF-8 Plain Text
Language : Russian
Text #2
ID : 5
Format : UTF-8
Codec ID : S_TEXT/UTF8
Codec ID/Info : UTF-8 Plain Text
Language : English

_________________
гарантировано на раздачах с 12-00 до 24-00
Вне форумаProfile PM
Показать сообщения:    
Ответить на тему

Текущее время: 08-Дек 17:38

Часовой пояс: GMT + 3



 Сообщить о нарушении в теме 

Вы не можете начинать темы
Вы не можете отвечать на сообщения
Вы не можете редактировать свои сообщения
Вы не можете удалять свои сообщения
Вы не можете голосовать в опросах
Вы не можете прикреплять файлы к сообщениям
Вы не можете скачивать файлы
Проверка сайта